&title=患部で止まってすぐ溶ける~狂気の優曇華院 [DX]
&wholebpm=200
&artist=ARM+夕野ヨシミ(IOSYS)feat. miko
&des=小鳥遊さん
&shortid=10301
&genre=東方Project
&cabinet=DX
&version=maimai DX
&chartconverter=Neskol
&lv_2=3
&des_2=-
&lv_3=7+
&des_3=-
&lv_4=11
&des_4=はっぴー
&lv_5=13
&des_5=小鳥遊さん
&des_6=
&inote_2=
(200){1},
{1},
{1},
{1},
{1},
{1}1,
{1},
{1}8,
{1},
{1}1,
{1}1,
{1}1,
{1},
{1}8,
{1}8,
{1}8h[1:1],
{1},
{1}1,
{1}1,
{1}2,
{1}2b,
{1}3,
{1}3,
{1}4,
{1}4x/5x,
{1}5,
{1}5,
{1}4h[1:1],
{1},
{2}5,5,
{1}5,
{2}4/5,4/5,
{1}3b/6b,
{1}E4,
{1}B4,
{1}B5,
{1}E6,
{1}C1hf[1:2],
{1},
{1},
{1},
{1}1-5[4:3],
{1},
{1}6,
{1}7,
{1}7-3[4:3],
{1},
{1}2,
{1}1,
{2}8,8,
{2}7,7,
{1}6xh[1:1],
{1},
{2}5,5,
{2}4,4,
{1}3xh[1:1],
{1},
{2}2,2,
{2}1,1,
{1}8xh[1:1],
{1},
{2}7,7,
{2}6,6,
{1}4xh[1:1]/5xh[1:1],
{1},
{1}B6,
{1}B7,
{1}B8,
{1}B1,
{1}B2,
{1}B3,
{1}C1hf[1:1],
{1},
{2}8,8,
{1}8,
{2}7,7,
{1}7,
{2}6,6,
{1}6,
{2}5,5,
{1}4x/5x,
{2}4,4,
{2}3,3,
{2}2,2,
{1}1/8,
{2}8,8,
{2}7,7,
{2}6,6,
{2}4/5,4/5,
{1}3b/6b,
{1},
{1},
{1},
E
&inote_3=
(200){1},
{2}B6,B4,
{1}B2,
{2}B3,B5,
{1}B7,
{2}B6,B4,
{2}B3,B5,
{2}B3/B6,B2/B7,
{1}C1f,
{2}6h[2:1],5,
{2}4/5,4/5,
{2}3h[2:1],4,
{2}4/5,4/5,
{2}6h[2:1],5,
{2}4/5,4/5,
{4}4,4,5,5,
{4}4/5,3/6,2x/7x,,
{4}2,2,2,1/2,
{4}8,8,2/7,,
{4}6,5,4,3,
{2}4/5,2b/7b,
{4}3,3,3,3/4,
{4}5,5,3/6,,
{4}7,8,1,2,
{2}1/8,2x/7x,
{4}7,7,7/8,7/8,
{4}1,1/8,2/7,,
{4}3,4,5,6,
{2}4/5,2x/7x,
{4}3,3,3/4,3/4,
{4}5,6,5/6,5/6,
{4}7x,8x,1x,2x,
{4}1x/8x,1x/8x,2b/7b,,
{2}B6,B4,
{1}B5,
{2}B3,B5,
{1}B4,
{2}B7,B5,
{2}B3,B1,
{2}B7,C1xh[2:1],
{1},
{1}1-5[4:3],
{1},
{1}6,
{1}7,
{1}7-3[4:3],
{1},
{1}2,
{1}1,
{4}2,1/2,8,1/8,
{4}7,7/8,1/6,,
{4}6h[4:1],5,4h[4:1],5,
{1}4-1[8:3]/5-8[8:3],
{4}7,7/8,1,1/8,
{4}2,1/2,3/8,,
{4}3h[4:1],4,5h[4:1],4,
{4}4/5,3/6,2b/7b,,
{4}2,1/2,3,3/4,
{4}5,4/5,3/6,,
{4}6h[4:1],5,3h[4:1],4,
{1}4-1[8:3]/5-8[8:3],
{4}7,7/8,6,5/6,
{4}4,4/5,3/6,,
{4}3h[4:1],4,6h[4:1],5,
{4}4/5,3/6,2b/7b,,
{1}2-5[8:3],
{1}6-8[8:3],
{1}1-4[8:3],
{4}5,5,5,,
{1}6-1[8:3],
{1}2-4[8:3],
{1}5-8[8:3],
{4}1x,1x,1b,,
{4}1,2,3,3/4,
{4}5,6,7x/8x,,
{4}6,5,4,4/5,
{4}3,2,2x/8x,,
{4}8,7,6,5/6,
{4}4,3,1x/2x,,
{4}3,4,5,4/5,
{4}6,7,1x/7x,,
{4}8,7,6,5,
{4}4,3,2,1x/8x,
{4}1,2,3,4,
{4}5,6,7,1x/8x,
{4}8,7,6,5,
{4}4,3,2,1,
{4}8x,8x,1x,1x,
{4}1x/8x,2x/7x,3b/6b,,
{1}C1f,
{1},
{1},
{1},
E
&inote_4=
(200){1},
{8}6,,6,,4/6,4/6,,5,
{8},5/6,5/6,,4h[8:1]/7h[8:1],,,,
{8}3,,3,,3/5,3/5,,4,
{8},3/4,3/4,,2h[4:1]/5h[8:1],,,,
{8}6,,6,,4/6,4/6,,5,
{8},5/6,5/6,,4h[8:1]/7h[8:1],,,,
{8}3,,3,,3/5,3/5,,4,
{8},3/4,3/4,,2x/5x,,,,
{8}7,,7,,4/6,4/6,,7,
{8},7/8,7/8,,4h[8:1]/7h[8:1],,,,
{8}2,,2,,3/5,3/5,,2,
{8},1/2,1/2,,2h[8:1]/5h[8:1],,,,
{8}7,,7,,4/6,4/6,,7,
{8},7/8,7/8,,4h[8:1]/7h[8:1],,,,
{4}4/5,3/6,2/7,1h[4:1]/8<2[2:1],
{2},1x,
{4}B2,E4/B4,B7,B5/E6,
{4}B2,E4/B4,B7,B5/E6,
{8}3/4,3/4,3/4,,5/6,5/6,5/6,,
{2}1h[4:1]/8h[4:1],2b/7b,
{4}B7,B5/E6,B2,B4/E4,
{4}B7,B5/E6,B2,B4/E4,
{4}2h[8:1]/8h[8:1],1h[8:1]/7h[8:1],2h[8:1]/8h[8:1],1h[8:1]/7h[8:1],
{2}2h[4:1]/8h[4:1],1b/7b,
{4}B2,B4/E4,B6,B8/E8,
{4}B2,E4/B4,B6,B8/E8,
{8}4/5,4/5,4/5,,4h[8:1]/5h[8:1],,4h[8:1]/5h[8:1],,
{2}3h[4:1]/6h[4:1],8b,
{4}3/5,1x,4/6,8x,
{4}3/5,1x,4/6,1x/8x,
{16}2,,2,,7,,7,,1,8,1,8,1,8,1,8,
{2}1-5[4:1],8b,
{4}B7/E8,E6/B6,B1/B8,B4/B5,
{4}B2/E2,B3/E4,C1f,,
{4}E2/B2,B3/E4,B1/B8,B4/B5,
{4}B7/E8,E6/B6,C1f,,
{4}7h[4:1],5h[4:1],4h[4:1],2,
{8}2h[4:1]/4h[4:1],,,5h[4:1]/7h[4:1],,,1/8,,
{4}2h[4:1],4h[4:1],5h[4:1],7,
{8}5h[4:1]/7h[4:1],,,2h[4:1]/4h[4:1],,,1/8,,
{1}1-5[4:3],
{1},
{1}6,
{1}7,
{1}7-3[4:3],
{1},
{1}2,
{1}1,
{4}E3/E4,B5/E8,E2/B4,E6/E7,
{4}E3/E4,B5/E8,E2/B4,E6/E7,
{4}7/8,5/6,3/4,1/2,
{8}8,8,1,1,2x/7x,,4/5,,
{4}E6/E7,E2/B4,B5/E8,E3/E4,
{4}E6/E7,E2/B4,B5/E8,E3/E4,
{4}1/2,3/4,5/6,7/8,
{8}1,1,8,8,2x/7x,,3/4,,
{4}E6/E8,B1/B4,B5/B8,E2/E4,
{4}E6/E8,B1/B4,B5/B8,E2/E4,
{4}1/8,6/7,4/5,2/3,
{8}1,1,8,8,2x/7x,,5/6,,
{4}E2/E4,B5/B8,B1/B4,E6/E8,
{4}E2/E4,B5/B8,B1/B4,E6/E8,
{4}1/8,2/3,4/5,6/7,
{8}8,8,1,1,3x/6x,,,,
{4}7h[4:1],5h[4:1],4h[4:1],2,
{4}E4/E8,E5/E7,C1f/E6,,
{4}7h[4:1]/8,5,1/2h[4:1],4,
{4}B1/B8,B4/B5,C1f,,
{4}2h[4:1],4h[4:1],5h[4:1],7,
{4}E3/E7,E4/E6,C1f/E5,,
{4}1/2h[4:1],4,7h[4:1]/8,5,
{1}C1hf[2:1],
{8}7h[8:1]/8h[8:1],,5h[8:1]/6h[8:1],,4/7,4/7,,3h[8:1]/5h[8:1],
{8},4/6,4/6,,C1f/B3/B7,,,,
{8}1h[8:1]/2h[8:1],,3h[8:1]/4h[8:1],,2/5,2/5,,4h[8:1]/6h[8:1],
{8},3/5,3/5,,C1f/B2/B6,,,,
{8}7h[8:1]/8h[8:1],,5h[8:1]/6h[8:1],,4/7,4/7,,3h[8:1]/5h[8:1],
{8},4/6,4/6,,C1f/B3/B7,,,,
{8}1h[8:1]/2h[8:1],,3h[8:1]/4h[8:1],,2/5,2/5,,4h[8:1]/6h[8:1],
{8},3/5,3/5,,C1f/B2/B6,,,,
{8}7/8,,3h[8:1]/4h[8:1],,1/8,2/7,,4h[8:1]/5h[8:1],
{8},3/6,3/6,,C1f/B4/B8,,,,
{8}1/2,,5h[8:1]/6h[8:1],,1/8,2/7,,4h[8:1]/5h[8:1],
{8},3/6,3/6,,B1/C1f/B5,,,,
{8}7/8,,3h[8:1]/4h[8:1],,1/8,2/7,,4h[8:1]/5h[8:1],
{8},3/6,3/6,,C1f/B4/B8,,,,
{4}1/8,2/3,4/5,6/7,
{4}1/8,4/5,2/7,,
{1}E1/C1f/E5,
{1},
{1},
{1},
E
&inote_5=
(200){1},
{8}4,,5,,2,2,,5,
{8},4,4,,7,7,,,
{8}4,,5,,2,2,,5,
{16},,4,,4,,,,7,1,7,1,7,,,,
{8}5,,4,,7,7,,4,
{8},5,5,,2,2,,,
{8}5,,4,,7,7,,4,
{16},,5,,5,,,,1,8,1,,2b/7b,,,,
{8}B1,B8,B2,B7,B3,B6,B4,B5,
{8}E2,E8,E3,E7,E4,E6,E1/E5,,
{8}C1,B8,B7,B6,B5,B4,B3,B2,
{8}C1,E1,E2,E3,E4,E5,E2/E6,,
{8}C1,B6,E4,B7,B1,E5,E1,E6,
{8}B3,C1,E2,E7,B4,B8,E3,B5,
{4}B1/E8,B4/E6,E2/B8,E4/B5,
{16}E2,B2,B3,E4,E8,B7,B6,E6,C1f,,,,,,,,
{4}8xqq6[8:1],2xpp4[8:1],7xqq5[8:1],1xpp3[8:1],
{4}8xqq6[8:1],2xpp4[8:1],7xqq5[8:1],1x,
{8}2,2,2,2,2/7,2/7,2/7,2/7,
{2}2b/7b,1b/8b,
{4}5x-7[8:1],5x-3[8:1],5x-8[8:1],5x-2[8:1],
{4}5x<8[8:1],5x>2[8:1],5x-1[8:1],5x,
{4}3xqq1[8:1],5xpp7[8:1],4xqq2[8:1],6xpp8[8:1],
{2}3x,B2/E2/B7/E8,
{8}6-4[8:1],6,8-2[8:1],8,7-3[8:1],7,8-2[8:1],8,
{8}6-4[8:1],6,7-3[8:1],7,6-4[8:1],6,8,8,
{8}5h[16:1],4h[16:1],5h[16:1],4h[16:1],4h[8:1]/5h[8:1],,4h[8:1]/5h[8:1],,
{2}C1/B6/B7/E8,C1f/B2/E2/B3,
{8}7,7,5h[8:1]/6h[8:1],,2,2,3h[8:1]/4h[8:1],,
{8}7,7,5h[8:1]/6h[8:1],,4h[8:1]/5h[8:1],,3/6,3/6,
{32}5x,,6,,7,,8,,1x,,2,,3,,4,,5x,6x,7x,8x,1x,2x,3x,4x,5x,6x,7x,8x,1x,2x,3x,4x,
{16}5x,,,,5xw1[8:1],,,,5x,C1f,,,,,,,
{16}2,1,2,,7,8,7,,2,1,2,,7,8,7,,
{16}3,4,3,,6,5,6,,4x/5x,,,4x/5x,,,4x/5x,,
{16}3,4,3,,6,5,6,,3,4,2,,6,5,7,,
{16}3,4,1,,6,5,8,,2,1,2,,3x/8x,,,,
{2}5-3[8:1]/7h[2:5],6-3[8:1],
{8}2,2,2,2,2,2,2,2,
{8}2,2,2,2,C1f,,,,
{1},
{1}1-5[4:3],
{1},
{1}6,
{1}7,
{1}7-3[4:3],
{8},,,,,,,C1hf[8:5]/B2/B3/B6/B7,
{1},
{1},
{4}1xpp3[8:1],7xqq5[8:1],2xpp4[8:1],8xqq6[8:1],
{4}1xpp3[8:1],7xqq5[8:1],2xpp4[8:1],8x,
{8}7,7,5/6,7,2,2,3/4,2,
{8}7,8,1,2,3h[4:1]/6h[4:1],,,,
{4}4x-2[8:1],4x-6[8:1],4x-1[8:1],4x-7[8:1],
{4}4x>1[8:1],4x<7[8:1],4x-8[8:1],4x,
{16}6,,5,,4,,3,,1x/2x,,,4x/5x,,,7x/8x,,
{4}1xp5[8:1]/8xq4[8:1],,3x/6x,1b/8b,
{8}6-4[8:1],6,8-2[8:1],8,7-3[8:1],7,8-2[8:1],8,
{8}6-4[8:1],6,7-3[8:1],7,6-4[8:1],6,8,8,
{8}6,5,4/7,6,3,4,2/5,3,
{8}6,5,4/7,6,1h[4:1]/5h[4:1],,,,
{8}3x-8[8:1]/7x-4[8:1],,3x/7x,,2b/6b,,7,8,
{8}1/2,3,4/5,6,7-4[8:1]/8h[4:1],,,,
{16}1/5,,2/6,,3/7,,4/8,,1x/2x,,,4x/5x,,,7x/8x,,
{2}B1/C1f/B2/B5/B6,C1f/B3/B4/B7/B8,
{8}2-5[8:1],2,7-3[8:1],7,1-4[8:1],1,5-8[8:1],5,
{8}3-6[8:1],3,8-4[8:1],8,1h[4:1],,7,,
{8}6-1[8:1],6,2-5[8:1],2,8-5[8:1],8,3-6[8:1],3,
{8}7-2[8:1],7,4-1[8:1],4,8h[4:1],,2,,
{8}7-4[8:1],7,2-6[8:1],2,8-5[8:1],8,4-1[8:1],4,
{8}6-3[8:1],6,1-5[8:1],1,8h[4:1],,2,,
{4}1>5[4:1],5<1[4:1],1>5[4:1],5<4[2:1],
{1}C1f,
{8}2/8,,5-1[8:1]/6,,8,8,,2-6[8:1]/6,
{8},8,8<5[8:1],,C1/E2,,,,
{8}1/7,,3/4-8[8:1],,1,1,,3/7-3[8:1],
{8},2,1>4[8:1],,C1/E8,,E4/E5,,
{8}2/8,,5-1[8:1]/6,,8,8,,2-6[8:1]/6,
{8},8,8<5[8:1],,C1/E2,,,,
{8}1/7,,3/4-8[8:1],,1,1,,3/7-3[8:1],
{8},1,1>4[8:1],,C1f/E8,,B4/B5,,
{8}3-8[8:1]/7-4[8:1],,3x/7x,,1,1-5[8:1],,6-3[8:1],
{16},,1,,1h[4:1],,,,8,7,6,5,C1/B1/4,,,,
{8}2-5[8:1]/6-1[8:1],,2x/6x,,8,8-4[8:1],,3-6[8:1],
{16},,8,,8h[4:1],,,,1,2,3,4,C1/B8/5,,,,
{8}3-8[8:1]/7-4[8:1],,3x/7x,,1,1-5[8:1],,6-3[8:1],
{16},,1,,1h[4:1],,,,7,6,5,4,B1/B8/3,,,,
{8}2-5[8:1],2,6-1[8:1],6,3-8[8:1],3,7-4[8:1],7,
{32}1x,,,,2x,,,,3x,,,,4x,,,,5x,6x,7x,8x,1xw5[4:1],2x,3x,4x,5x,,,,,,,,
{1}C1f,
{1},
{1},
{1},
E
